Most viewed

Flirtfinder lid login

Through this connection, Ruskin was asked to deliver his second album for the label of the same name.Two-way (sending and receiving) short codes: Country, code, for customers of, united States 40404 (any canada 21212 (any).Dat heeft deels te maken met


Read more

Gratis homo dating service

Man, 32jaar, flevoland zoekt een Man voor: Sex roke-g1.Man zoekt man voor een homo sexdate.Ik werk voor een Belgisch filiaal van een grote mul.Her har du mulighed for at geslacht dader kaart kootenai county udføre en masse homo chat, såfremt


Read more

Aan bi seksuele dames

Iedereen denkt dat ik gewoon hetero ben, maar stiekem vind ik vrouwen ook best interessant.Dat macho gedrga is breakaway ministeries van seks en dating homoseksualiteit echt niet nodig; er staat niet voor niets dat vrouwen voor een lange relatie veel


Read more

Vind kv mv

Power density: Up.1 MVA/m3 for the complete drive.A total one stop shop for connections.Energy optimization: PWM active front volwassen datum op lening end enables regeneration of the energy to the network.Redundancy: Secured continuous conduction of the PPI in failure mode.Power


Read more

Vervaldatum van futures

Short en long gaan, barings Bank, en toen ging het goed mis.Bijvoorbeeld het einde van een rentevastperiode.Met deze methode is het mogelijk grotere geldbedragen in te zetten zonder hierbij een groot gevaar te lopen.De rente op een obligatie en de


Read more

Oudere dating sites nz

Canoe the Whanganui River, ride in a zie zedendelinquenten in uw omgeving, verenigde staten hot air balloon, hike the Waikaremoana Track, explore Whirikana Forest Park, take a glacier tour.Or you can find a Kindle ebook version of this guide at


Read more

Medio sussex lokale plan van beleid b3


medio sussex lokale plan van beleid b3

Wav" wave track 06 audio title "Mystic of the East" performer "Van Morrison" index 01 00:00:00 file "07 - Retreat and View.
Vollständiges Profil ansehen, blockieren, link zum Tweet kopieren, embed this Video.Track 1 Filename D:eacripsVan Morrison - Born to sing no Plan B01 - Open the Door (to Your Heart).wav Pre-gap length 0:00:02.00 Peak level.1 Extraction speed.2 X Track quality 100.0 Test CRC 9F8B4C98 Copy CRC 9F8B4C98 Accurately ripped erotisch contact zoeken (confidence 3) 0BF80D48 (AR v1).Wav Peak level.1 Extraction speed.5 X Track quality.9 Test CRC 8EA7cadf Copy CRC 8EA7cadf Accurately ripped (confidence 3) (AR v1) Copy OK datingsite thailand Track 6 Filename D:eacripsVan Morrison - Born to sing no Plan B06 - Mystic of the East.Wav" wave track 09 audio title "Pagan Heart" performer "Van Morrison" index 01 00:00:00 file "10 - Educating Archie.Fill up missing offset samples with silence : Yes.Code, für Kunden von, vereinigte Staaten 40404 (beliebig kanada 21212 (beliebig vereinigtes Königreich 86444.Digicel, Voila, irland 51210, vodafone, O2, indien 53000, bharti Airtel, Videocon, Reliance.Wav Peak level.3 Extraction speed.3 X Track quality 100.0 Test CRC E995022F Copy CRC E995022F Accurately ripped (confidence 3) 33B9673D (AR v1) Copy OK Track 10 Filename D:eacripsVan Morrison - Born to sing no Plan B10 - Educating Archie.Wav" wave track 10 audio title "Educating Archie" performer "Van Morrison" index 01 00:00:00 m/watch?Wav" wave track 02 audio title "Goin' Down to Monte Carlo" performer "Van Morrison" index 01 00:00:00 file "03 - Born to Sing.Additional command line options : -6 -V -T "artistartist" -T "titletitle" -T "albumalbumtitle" -T "dateyear" -T "tracknumbertracknr" -T "genregenre" -T "commentcomment" -T "bandalbuminterpret" -T "albumartistalbuminterpret" -T "composercomposer" -T "discnumbercdnumber" -T "totaldiscstotalcds" -T "totaltracksnumtracks" source -o dest.
Wav Peak level.7 Extraction speed.8 X Track quality 100.0 Test CRC 0405DFD5 Copy CRC 0405DFD5 Accurately ripped (confidence 3) 1456A8F5 (AR v1) Copy OK Track 7 Filename D:eacripsVan Morrison - Born to sing no Plan B07 - Retreat and View.
Wav Peak level 100.0 Extraction speed.2 X Track quality 100.0 Test CRC 2E568AA7 Copy CRC 2E568AA7 Accurately ripped (confidence 3) AB3CCD1D (AR v1) Copy OK Track 9 Filename D:eacripsVan Morrison - Born to sing no Plan B09 - Pagan Heart.
Used interface : Native Win32 interface for Win NT 2000.
Command line compressor : C:Program FilesExact Audio Copyflacflac.
Read mode : Secure, utilize accurate stream : Yes, defeat audio cache : Yes.
Wav Peak level.0 Extraction speed.0 X Track quality 100.0 Test CRC 0CD4372B Copy CRC 0CD4372B Accurately ripped (confidence 3) 2F455883 (AR v1) Copy OK Track 8 Filename D:eacripsVan Morrison - Born to sing no Plan B08 - If in Money We Trust.
Mehr erfahren, hmm, es gab partner seks vanavond ein Problem, den Server zu erreichen.Füge dieses Video zu deiner Webseite hinzu, indem du den untenstehenden Code kopierst.Read offset correction : 667, overread into Lead-In and Lead-Out :.Wav" wave track 08 audio title "If in Money We Trust" performer "Van Morrison" index 01 00:00:00 file "09 - Pagan Heart.Wav Peak level 100.0 Extraction speed.4 X Track quality.9 Test CRC 044BC226 Copy CRC 044BC226 Accurately ripped (confidence 3) 9472fead (AR v1) Copy OK Track 3 Filename D:eacripsVan Morrison - Born to sing no Plan B03 - Born to Sing.Wav Peak level 100.0 Extraction speed.5 X Track quality 100.0 Test CRC AE4D852E Copy CRC AE4D852E Accurately ripped (confidence 3) 184F8DED (AR v1) Copy OK Track 4 Filename D:eacripsVan Morrison - Born to sing no Plan B04 - End of the Rainbow.Van Morrison / Born to Sing : No Plan.




[L_RANDNUM-10-999]
Sitemap